Metallica (Francia Live) 2009 (Formato Avi)

Tema en 'Videos Rock' iniciado por -CABU-, 8 de Diciembre de 2011.

  1. -CABU-

    -CABU- Bananero tirapiedra

    Registrado:
    26 de Octubre de 2007
    Mensajes:
    10.424
    Me Gusta recibidos:
    229
    [​IMG]


    Video
    Format : MPEG-4 Visual
    Format profile : Simple@L1
    Format settings, BVOP : No
    Format settings, QPel : No
    Format settings, GMC : No warppoints
    Format settings, Matrix : Default (H.263)
    Codec ID : FMP4
    Duration : 2h 12mn
    Bit rate : 2 806 Kbps

    Width : 1 280 pixels
    Height : 720 pixels

    Display aspect ratio : 16:9
    Frame rate : 23.976 fps
    Color space : YUV
    Chroma subsampling : 4:2:0
    Bit depth : 8 bits
    Scan type : Progressive
    Compression mode : Lossy
    Bits/(Pixel*Frame) : 0.127
    Stream size : 2.59 GiB (94_)
    Writing library : Lavc52.97.0

    Audio

    Format : MPEG Audio
    Format version : Version 1
    Format profile : Layer 3
    Mode : Joint stereo
    Mode extension : MS Stereo
    Codec ID : 55
    Codec ID/Hint : MP3
    Duration : 2h 12mn
    Bit rate mode : Constant
    Bit rate : 160 Kbps
    Channel(s) : 2 channels
    Sampling rate : 48.0 KHz
    Compression mode : Lossy
    Stream size : 151 MiB (5_)
    Alignment : Aligned on interleaves
    Interleave, duration : 24 ms (0.58 video frame)



    Un abre bocas nomas....
    Solo pesa 3.79 Mb

    http://www.megaupload.com/?d=JNKTBKMU


    Parte 1: http://www.fileserve.com/file/p4AzGDm
    Parte 2: http://www.fileserve.com/file/7KjEZuT
    Parte 3: http://www.fileserve.com/file/DGYqcaq
    Parte 4: http://www.fileserve.com/file/xQPDP5U
    Parte 5: http://www.fileserve.com/file/njGFZYx
    Parte 6: http://www.fileserve.com/file/qEhJ2NH
    Parte 7: http://www.fileserve.com/file/ZJhGm2v
    Parte 8: http://www.fileserve.com/file/7RVDxrX
    Parte 9: http://www.fileserve.com/file/6xrA7xg
    Parte 10: http://www.fileserve.com/file/KwT3u8r
    Parte 11: http://www.fileserve.com/file/RVHJdDv
    Parte 12: http://www.fileserve.com/file/6t8YDua
    Parte 13: http://www.fileserve.com/file/tdDXHUz

    PD: Recomiendo que empiesen por el ultimo link q fue el q me puso problema si no les descarga me dicen de todas formas yo lo subo en otro server entonces
     

    Adjuntos:

    #1

Compartir esta página